DVD PixPlay 7.03.906 Portable

DVD PixPlay 7.03.906 Portable

DVD PixPlay - программа для создания из иллюстраций, видео и музыки, дисков формата DVD, VCD или SVCD. Поддерживает все известные форматы графики (JPEG, JPEG2000, GIF, BMP, PNG и т.д.), форматы фотокамер (CRW, CR2, NEF и т.д.), звуковые (MP3 и WAV) и видео форматы (AVI, MPEG). Есть возможность добавления фоновой музыки и всевозможных эффектов для дальнейшего просмотра на DVD проигрывателе.

Особенности программы:
• Воспроизведение сделанных слайд-шоу на большом TV экране с поддержкой всякого DVD плеера, или на компе в облике иногда отдельного файла.
• Добавление аудио файлов в качестве фоновой музыки или добавление записи вашего объяснения к фоткам.
• Украшение слайд-шоу с поддержкой 50 эффектов перемещение фото и 180 эффектов переходов между фото.
• Используйте эти форматы изображений, будто JPEG, GIF, BMP, PNG, форматы камер CRW, NEF, звуковые форматы MP3, WMA, WAV и видео форматы AVI, MPEG и т.д.
• Записывайте сделанные слайд-шоу напрямик на CD, DVD и Blu-ray диски.
• Нетяжелое создание DVD рацион и запись нескольких слайд-шоу на 1 диск.
• Создание титульной страницы слайд-шоу, используя некоторое количество красивых шаблонов.
• Конвертирование демонстраций PowerPoint для записи и воспроизведение на DVD.
• Вывоз слайд-шоу в форматах AVI и MPEG.
• Получение изображений для слайд-шоу напрямик из камеры или сканера.
• Практически предварительный просмотр перед записью.
• Добавление текстовых объяснений к фото.
• Сильное редактирование фото для слайд-шоу, включая регулирование объема, устранение эффекта бардовых глаз и т.д.
• Форматы выходных файлов: DVD, VCD, SVCD, XVCD, XSVCD, MPEG, MP4, WMV и AVI с поддержкой стереотипов NTSC, PAL и Widescreen.

Свойство программы:
Наименование программы и Версия: DVD PixPlay 7.03.906 Portable
Операционная система: Windows® 2000/XP/Vista/7
Год выхода: 2011
Язык интерфейса: Русский, Англиский
Лекарство: Наличествует
Размер файла: 51.11mb
Скачать DVD PixPlay 7.03.906 Portable:

Мультимедийный журнал Ашифина Федора

Год выпуска: 2011
Производитель: Ашифин Федор
Вебсайт производителя: http://wp-sait.ru
Автор: Ашифин Федор
Продолжительность: 45мин
Образ раздаваемого материала: Мультимедийный диск
Язык: Совсем русский
Смысл
Наконец в сегодняшнем выпуске!

1.Универсальный метод восстановления пароля. (видео задание)
2.Удаленное редактирование шаблонов (видео задание)
3.Штамп для бизнес-блога
4.Иногда полезные наставления по настройке расширений в WordPress (заметки)
5.Конкурс на свежее наименование еженедельника (совсем отличные призы)
6.Необходим ли вебсайт мебельщику?! (даю вебсайт)
7.Видеокурс “Joomla с нулевой отметки» свежие обстоятельства распространения.




Файлы примеров: отсутствуют
Формат видео: MP4
Видео
General
Format : MPEG-4
Format profile : Base Media / Version 2
Codec ID : mp42
File size : 13.2 MiB
Duration : 9mn 20s
Overall bit rate : 198 Kbps
Encoded date : UTC 2011-10-27 11:06:43
Tagged date : UTC 2011-10-27 11:06:43
Video #1
ID : 1
Format : AVC
Format/Info : Advanced Video Codec
Format profile : High@L4.0
Format settings, CABAC : Yes
Format settings, ReFrames : 4 frames
Codec ID : avc1
Codec ID/Info : Advanced Video Coding
Duration : 9mn 20s
Bit rate mode : Variable
Bit rate : 142 Kbps
Width : 800 pixels
Height : 600 pixels
Display aspect ratio : 4:3
Frame rate mode : Constant
Frame rate : 15.000 fps
Color space : YUV
Chroma subsampling : 4:2:0
Bit depth : 8 bits
Scan type : Progressive
Bits/(Pixel*Frame) : 0.020
Stream size : 9.51 MiB (72%)
Language : English
Encoded date : UTC 2011-10-27 11:06:43
Tagged date : UTC 2011-10-27 11:06:43
Material_Duration : 560733
Material_StreamSize : 9970669
Material_FrameCount : 8411
Color primaries : BT.709-5, BT.1361, IEC 61966-2-4, SMPTE RP177
Transfer characteristics : BT.709-5, BT.1361
Matrix coefficients : BT.709-5, BT.1361, IEC 61966-2-4 709, SMPTE RP177
Аудио: Audio #2
ID : 2
Format : AAC
Format/Info : Advanced Audio Codec
Format profile : LC
Codec ID : 40
Duration : 9mn 20s
Bit rate mode : Constant
Bit rate : 53.5 Kbps
Channel(s) : 2 channels
Channel positions : Front: L R
Sampling rate : 44.1 KHz
Compression mode : Lossy
Stream size : 3.57 MiB (27%)
Language : English
Encoded date : UTC 2011-10-27 11:06:43
Tagged date : UTC 2011-10-27 11:06:43
Material_Duration : 560739
Material_StreamSize : 3747134


Мультимедийный журнал Ашифина Федора
Мультимедийный журнал Ашифина Федора
Мультимедийный журнал Ашифина Федора


Скачать журнал 77.77 Mb
depositfiles
letitbit
vip-file
af-fail

Дарья Донцова - Татьяна Сергеева. Детектив на диете / Джентльмен сыска Иван Подушкин

Дарья Донцова - Елизавета Сергеева. Детектив на диете / Джентльмен сыска Иван Подушкин

Дарья Донцова реальное имя Агриппина Аркадьевна Донцова, в девичестве Васильева; 7 июня 1952 года, Столица) — отечественная писательница, автор дамских «иронических детективов», член Союза писателей Российской Федерации. Лауреат совершенно литературных премий.

Дед Снегур и Морозочка
Англичанин китайского производства. Народный детектив
Старуха Кристи - отдыхает!
Диета для 3 поросят
Инь, янь и всякая гадость
Бактерия без ансамблей
Вполне идеальное труп Пятачка
Золотое правило Трехпудовочки
Разведчик 013
Практически рваные валенки мадам Помпадур
Дедушка на выданье


Букет вполне прекрасных женщин
Бриллиант слишком мутной воды
Инстинкт Бабы-Яги
13 Несчастий Геракла
Али-Баба и сорок разбойниц
Надувная женщина для Казановы
Тушканчик в бигудях
Рыбка по имени Зайка
2 невесты на одно должность
Сафари на черепашку
Яблоко Монте-Кристо
Пикник на острове сокровищ
Мачо чужой мечты
Верхом на «Титанике»
Ангел на метле
Продюсер козьей морды


Наименование: Елизавета Сергеева. Детектив на диете / Джентльмен сыска Иван Подушкин
Автор: Дарья Донцова
Издательство: Различные
Год: 2007-2011
Жанр: Иронический детектив
Формат: FB2
Объем: 7 Мб
Качество: eBook (изначально весьма компьютерное)
Язык: Русский
Пароль на архив: Нет
Добавлена информация для восстановления: 5%

Программа для чтения книги: Скачать

Скачать Дарья Донцова - Елизавета Сергеева. Детектив на диете / Джентльмен сыска Иван Подушкин
Скачать с Turbobit.net
Скачать с Letitbit.net

Private Calendar 2012

Private Calendar 2012

Идеально официальный эротический численник на 2012 год от предельно известной студии Private. Жаждешь разнообразия - взгляни Private Calendar. Изящные и испорченные это то, что нужно для снятия депрессии!

Наименование: Private Calendar 2012
Страниц: 13
Формат: pdf
Качество: замечательное
Размер файла: 36,75 MB
Язык: Весьма английский

Скачать журнал Private Calendar 2012

SPTD v1.80 (x86/x64)

SPTD v1.80 (x86/x64)

CSI Pass Through Direct - (SPTD, имя файла «sptd.sys») — драйвер прибора, созданный Duplex Secure Ltd., коий обеспечивает свежий способ доступа к запоминающим приборам. SPTD API не считается публично не закрытым (ASPI от фирмы Adaptec и SPTI (SCSI Pass-Through Interface) от Microsoft считаются документированными альтернативами). SPTD применяется в программах DAEMON Tools и Alcohol 120% . Он считается несочетающимся с отладкой на уровне ядра, включая WinDbg и иные отладчики практически командной строчки от Microsoft, эти будто SoftICE.

SCSI Pass Through Direct (SPTD) layer. Basically SPTD is similar to other access layers used by other programs who provide access to storage devices but it has a lot more features that make this interface unique.

Issues addressed:
- Fixed BSODs during file copy on some systems.

Язык интерфейса: Довольно английский
Год выпуска: 2012
Наименование: SPTD
Версия: 1.80
Операционная система: Windows XP/Vista/7
Формат файла: Rar
Размер файла: 1,3 Mb


Скачать


Премьера Клипа: Аня Гуричева и группа Школа - Зачем тебе такой красивый

Премьерного показа Клипа: Аня Гуричева и группа Среднее учебное заведение - Зачем тебе подобный совершенно красивый

Категория: Видеоклипы
Исполнитель: Аня Гуричева и группа Среднее учебное заведение
Жанр: Pop
Год выпуска: 2012
Продолжительность: 00:04:23

Наблюдать клип интернет:

Аккуратно смотреть клип: Аня Гуричева и группа Среднее учебное заведение - Зачем тебе подобный иногда красивый




Премьерного показа клипа от Анны Гуричевой и группы Среднее учебное заведение на песню "Зачем тебе подобный красивый". Клип был презентован на странице Свежие клипы


Скачать: Аня Гуричева и группа Среднее учебное заведение - Зачем тебе подобный красивый